Night Hunter 2019 1080p HDRip x264 [MW]

  • Category Movies
  • Type HD
  • Language English
  • Total size 1.6 GB
  • Uploaded By moviezworldz
  • Downloads 1126
  • Last checked 6 days ago
  • Date uploaded 1 week ago
  • Seeders 41
  • Leechers 3

Night Hunter

ActionThriller

An American police force traps an online predator, only to realize the depth of his crimes goes far beyond anything they had anticipated.

Infohash : 7B7AB107F423D1990716EBC215711E2FC90AA0E7





General
Format : Matroska
Format version : Version 4
File size : 1.56 GiB
Duration : 1 h 36 min
Overall bit rate : 2 312 kb/s

Video
ID : 1
Format : AVC
Format/Info : Advanced Video Codec
Format profile : [email protected]
Format settings : CABAC / 4 Ref Frames
Format settings, CABAC : Yes
Format settings, Reference frames : 4 frames
Codec ID : V_MPEG4/ISO/AVC
Duration : 1 h 36 min
Bit rate : 2 100 kb/s
Width : 1 920 pixels
Height : 800 pixels
Display aspect ratio : 2.40:1
Frame rate mode : Constant
Frame rate : 60.000 FPS
Color space : YUV
Chroma subsampling : 4:2:0
Bit depth : 8 bits
Scan type : Progressive
Bits/(Pixel*Frame) : 0.023
Stream size : 1.39 GiB (89%)
Writing library : x264 core 157 r2935 545de2f

Audio
ID : 2
Format : AAC LC
Codec ID : A_AAC-2
Duration : 1 h 36 min
Bit rate : 256 kb/s
Channel(s) : 2 channels
Channel layout : L R
Sampling rate : 48.0 kHz
Frame rate : 46.875 FPS (1024 SPF)
Compression mode : Lossy
Stream size : 178 MiB (11%)
Language : English
Default : Yes
Forced : No


Click To View Image







Files:

Night Hunter 2019 1080p HDRip x264 [MW]
  • Night Hunter 2019 1080p HDRip x264 [MW].mkv (1.6 GB)

Comments

Code:

  • udp://tracker.openbittorrent.com:80/announce
  • udp://tracker.opentrackr.org:1337/announce
  • udp://tracker.coppersurfer.tk:6969/announce
  • udp://tracker.leechers-paradise.org:6969/announce
  • udp://tracker.internetwarriors.net:1337/announce
  • udp://tracker.opentrackr.org:1337/announce
  • udp://9.rarbg.to:2750/announce
  • udp://exodus.desync.com:6969/announce
  • udp://tracker1.itzmx.com:8080/announce
  • udp://explodie.org:6969/announce
  • http://tracker3.itzmx.com:6961/announce
  • udp://tracker.port443.xyz:6969/announce
  • udp://tracker.torrent.eu.org:451/announce