Godzilla King of the Monsters 2019 1080p WEB-DL DD 5.1 x264 [MW]

  • Category Movies
  • Type HD
  • Language English
  • Total size 2.4 GB
  • Uploaded By moviezworldz
  • Downloads 459
  • Last checked 5 days ago
  • Date uploaded 1 week ago
  • Seeders 10
  • Leechers 5

Godzilla: King of the Monsters

Science FictionThrillerAction

The new story follows the heroic efforts of the crypto-zoological agency Monarch as its members face off against a battery of god-sized monsters, including the mighty Godzilla, who collides with Mothra, Rodan, and his ultimate nemesis, the three-headed King Ghidorah. When these ancient super-species—thought to be mere myths—rise again, they all vie for supremacy, leaving humanity’s very existence hanging in the balance.

Infohash : 29ABEE104F4EC50ECE24C12D82CB51EA935FFF48





General
Format : Matroska
Format version : Version 4
File size : 2.35 GiB
Duration : 2 h 11 min
Overall bit rate : 2 557 kb/s

Video
ID : 1
Format : AVC
Format/Info : Advanced Video Codec
Format profile : [email protected]
Format settings : CABAC / 4 Ref Frames
Format settings, CABAC : Yes
Format settings, Reference frames : 4 frames
Codec ID : V_MPEG4/ISO/AVC
Duration : 2 h 11 min
Bit rate : 2 200 kb/s
Width : 1 920 pixels
Height : 800 pixels
Display aspect ratio : 2.40:1
Frame rate mode : Constant
Frame rate : 23.976 (24000/1001) FPS
Color space : YUV
Chroma subsampling : 4:2:0
Bit depth : 8 bits
Scan type : Progressive
Bits/(Pixel*Frame) : 0.060
Stream size : 2.00 GiB (85%)
Writing library : x264 core 157 r2935 545de2f

Audio
ID : 2
Format : AC-3
Format/Info : Audio Coding 3
Commercial name : Dolby Digital
Codec ID : A_AC3
Duration : 2 h 11 min
Bit rate mode : Constant
Bit rate : 384 kb/s
Channel(s) : 6 channels
Channel layout : L R C LFE Ls Rs
Sampling rate : 48.0 kHz
Frame rate : 31.250 FPS (1536 SPF)
Bit depth : 16 bits
Compression mode : Lossy
Stream size : 362 MiB (15%)
Language : English
Service kind : Complete Main
Default : Yes
Forced : No

Text
ID : 3
Format : UTF-8
Codec ID : S_TEXT/UTF8
Codec ID/Info : UTF-8 Plain Text
Duration : 2 h 11 min
Bit rate : 53 b/s
Count of elements : 1857
Stream size : 51.7 KiB (0%)
Language : English
Default : Yes
Forced : No


Click To View Image








Files:

Godzilla King of the Monsters 2019 1080p WEB-DL DD 5.1 x264 [MW]
  • Godzilla King of the Monsters 2019 1080p WEB-DL DD 5.1 x264 [MW].mkv (2.4 GB)

There are currently no comments. Feel free to leave one :)

Code:

  • udp://tracker.openbittorrent.com:80/announce
  • udp://tracker.opentrackr.org:1337/announce
  • udp://tracker.coppersurfer.tk:6969/announce
  • udp://tracker.leechers-paradise.org:6969/announce
  • udp://tracker.internetwarriors.net:1337/announce
  • udp://tracker.opentrackr.org:1337/announce
  • udp://9.rarbg.to:2750/announce
  • udp://exodus.desync.com:6969/announce
  • udp://tracker1.itzmx.com:8080/announce
  • udp://explodie.org:6969/announce
  • http://tracker3.itzmx.com:6961/announce
  • udp://tracker.port443.xyz:6969/announce
  • udp://tracker.torrent.eu.org:451/announce