The Secret Life of Pets 2 2019 1080p WEB-DL DD 5.1 x264 [MW]

  • Category Movies
  • Type HD
  • Language English
  • Total size 1.5 GB
  • Uploaded By moviezworldz
  • Downloads 1586
  • Last checked 1 week ago
  • Date uploaded 1 week ago
  • Seeders 92
  • Leechers 25

The Secret Life of Pets 2

AdventureAnimationComedyFamily

The further adventures of Max the dog and his furry animal friends.

Infohash : C9B97E6989743CEDFBA3D03DC2F85EABAE31A178





General
Format : Matroska
Format version : Version 4
File size : 1.52 GiB
Duration : 1 h 26 min
Overall bit rate : 2 533 kb/s

Video
ID : 1
Format : AVC
Format/Info : Advanced Video Codec
Format profile : [email protected]
Format settings : CABAC / 4 Ref Frames
Format settings, CABAC : Yes
Format settings, Reference frames : 4 frames
Codec ID : V_MPEG4/ISO/AVC
Duration : 1 h 26 min
Bit rate : 2 200 kb/s
Width : 1 920 pixels
Height : 1 036 pixels
Display aspect ratio : 1.85:1
Frame rate mode : Constant
Frame rate : 23.976 (24000/1001) FPS
Color space : YUV
Chroma subsampling : 4:2:0
Bit depth : 8 bits
Scan type : Progressive
Bits/(Pixel*Frame) : 0.046
Stream size : 1.29 GiB (85%)
Writing library : x264 core 157 r2935 545de2f

Audio
ID : 2
Format : AC-3
Format/Info : Audio Coding 3
Commercial name : Dolby Digital
Codec ID : A_AC3
Duration : 1 h 26 min
Bit rate mode : Constant
Bit rate : 384 kb/s
Channel(s) : 6 channels
Channel layout : L R C LFE Ls Rs
Sampling rate : 48.0 kHz
Frame rate : 31.250 FPS (1536 SPF)
Bit depth : 16 bits
Compression mode : Lossy
Stream size : 236 MiB (15%)
Language : English
Service kind : Complete Main
Default : Yes
Forced : No

Text
ID : 3
Format : UTF-8
Codec ID : S_TEXT/UTF8
Codec ID/Info : UTF-8 Plain Text
Duration : 1 h 26 min
Bit rate : 77 b/s
Count of elements : 1926
Stream size : 48.6 KiB (0%)
Language : English
Default : Yes
Forced : No


Click To View Image








Files:

The Secret Life of Pets 2 2019 1080p WEB-DL DD 5.1 x264 [MW]
  • The Secret Life of Pets 2 2019 1080p WEB-DL DD 5.1 x264 [MW].mkv (1.5 GB)

There are currently no comments. Feel free to leave one :)

Code:

  • udp://tracker.openbittorrent.com:80/announce
  • udp://tracker.opentrackr.org:1337/announce
  • udp://tracker.coppersurfer.tk:6969/announce
  • udp://tracker.leechers-paradise.org:6969/announce
  • udp://tracker.internetwarriors.net:1337/announce
  • udp://tracker.opentrackr.org:1337/announce
  • udp://9.rarbg.to:2750/announce
  • udp://exodus.desync.com:6969/announce
  • udp://tracker1.itzmx.com:8080/announce
  • udp://explodie.org:6969/announce
  • http://tracker3.itzmx.com:6961/announce
  • udp://tracker.port443.xyz:6969/announce
  • udp://tracker.torrent.eu.org:451/announce