Annabelle.Comes.Home.2019.KORSUB.HDRip.XviD.MP3-STUTTERSHIT

  • Category Movies
  • Type Divx/Xvid
  • Language English
  • Total size 1.2 GB
  • Uploaded By Dakshvv
  • Downloads 167
  • Last checked 1 week ago
  • Date uploaded 1 week ago
  • Seeders 37
  • Leechers 39

Infohash : 1FC566C06D39E3927E140A1F84C4F0EB9ED67954




Code:




Video
ID : 0
Format : MPEG-4 Visual
Format profile : [email protected]
Format settings, BVOP : No
Format settings, QPel : No
Format settings, GMC : No warppoints
Format settings, Matrix : Default (H.263)
Codec ID : XVID
Codec ID/Hint : XviD
Duration : 1 h 39 min
Bit rate : 1 530 kb/s
Width : 720 pixels
Height : 300 pixels
Display aspect ratio : 2.40:1
Frame rate : 30.000 FPS
Color space : YUV
Chroma subsampling : 4:2:0
Bit depth : 8 bits
Scan type : Progressive
Compression mode : Lossy
Bits/(Pixel*Frame) : 0.236
Stream size : 1.07 GiB (88%)
Writing library : Lavc58.1.100

Audio
ID : 1
Format : MPEG Audio
Format version : Version 1
Format profile : Layer 3
Format settings : Joint stereo
Codec ID : 55
Codec ID/Hint : MP3
Duration : 1 h 39 min
Bit rate mode : Constant
Bit rate : 192 kb/s
Channel(s) : 2 channels
Sampling rate : 48.0 kHz
Compression mode : Lossy
Stream size : 137 MiB (11%)
Alignment : Aligned on interleaves
Interleave, duration : 24 ms (0.72 video frame)
Interleave, preload duration : 504 ms








Files:

Annabelle.Comes.Home.2019.KORSUB.HDRip.XviD.MP3-STUTTERSHIT
  • Annabelle.Comes.Home.2019.KORSUB.HDRip.XviD.MP3-STUTTERSHIT.avi (1.2 GB)
  • English-SDH.srt (80.6 KB)
  • English.srt (62.5 KB)
  • RARBG.txt (0.0 KB)

There are currently no comments. Feel free to leave one :)

Code:

  • http://tracker.trackerfix.com:80/announce
  • udp://9.rarbg.me:2750/announce
  • udp://9.rarbg.to:2720/announce