Annabelle.Comes.Home.2019.720p.KORSUB.HDRip.XviD.MP3-STUTTERSHIT

  • Category Movies
  • Type Divx/Xvid
  • Language English
  • Total size 2.8 GB
  • Uploaded By Dakshvv
  • Downloads 419
  • Last checked 5 days ago
  • Date uploaded 1 week ago
  • Seeders 131
  • Leechers 108

Annabelle Comes Home

Horror

Determined to keep Annabelle from wreaking more havoc, demonologists Ed and Lorraine Warren bring the possessed doll to the locked artifacts room in their home, placing her “safely” behind sacred glass and enlisting a priest’s holy blessing. But an unholy night of horror awaits as Annabelle awakens the evil spirits in the room, who all set their sights on a new target—the Warrens' ten-year-old daughter, Judy, and her friends.

Infohash : C39958BC806286E9DECEC6E5B7EE833B86AB211D


Code:



Video
ID : 0
Format : MPEG-4 Visual
Format profile : [email protected]
Format settings, BVOP : No
Format settings, QPel : No
Format settings, GMC : No warppoints
Format settings, Matrix : Default (H.263)
Codec ID : XVID
Codec ID/Hint : XviD
Duration : 1 h 39 min
Bit rate : 3 860 kb/s
Width : 1 280 pixels
Height : 534 pixels
Display aspect ratio : 2.40:1
Frame rate : 30.000 FPS
Color space : YUV
Chroma subsampling : 4:2:0
Bit depth : 8 bits
Scan type : Progressive
Compression mode : Lossy
Bits/(Pixel*Frame) : 0.188
Stream size : 2.69 GiB (95%)
Writing library : Lavc58.1.100

Audio
ID : 1
Format : MPEG Audio
Format version : Version 1
Format profile : Layer 3
Format settings : Joint stereo
Codec ID : 55
Codec ID/Hint : MP3
Duration : 1 h 39 min
Bit rate mode : Constant
Bit rate : 192 kb/s
Channel(s) : 2 channels
Sampling rate : 48.0 kHz
Compression mode : Lossy
Stream size : 137 MiB (5%)
Alignment : Aligned on interleaves
Interleave, duration : 24 ms (0.72 video frame)
Interleave, preload duration : 504 ms








Files:

Annabelle.Comes.Home.2019.720p.KORSUB.HDRip.XviD.MP3-STUTTERSHIT
  • Annabelle.Comes.Home.2019.720p.KORSUB.HDRip.XviD.MP3-STUTTERSHIT.avi (2.8 GB)
  • English-SDH.srt (80.6 KB)
  • English.srt (62.5 KB)
  • RARBG.txt (0.0 KB)

Comments

Code:

  • http://tracker.trackerfix.com:80/announce
  • udp://9.rarbg.me:2770/announce
  • udp://9.rarbg.to:2740/announce