Waterworld (1995) (2160p BluRay x265 HEVC 10bit AAC 7.1 Joy) [UTR...

  • Category Movies
  • Type HEVC/x265
  • Language English
  • Total size 7.2 GB
  • Uploaded By UTRCorp
  • Downloads 305
  • Last checked 1 week ago
  • Date uploaded 1 week ago
  • Seeders 24
  • Leechers 10

Infohash : 77670B0B8F25F8533BC48353D6182A8396CFD41E


Media Information

Code:

General
Format : Matroska
Format version : Version 4 / Version 2
File size : 7.20 GiB
Duration : 2 h 15 min
Overall bit rate : 7 625 kb/s
Movie name : Waterworld 1995 (2160p x265 10bit FS83 Joy) [UTR]
Encoded date : UTC 2019-08-13 01:34:44
Writing application : mkvmerge v32.0.0 ('Astral Progressions') 64-bit
Writing library : libebml v1.3.7 + libmatroska v1.5.0
Cover : Yes
Attachments : cover.jpg
Writing frontend : StaxRip v2.0.2.0, Encoded by JoyBell

Video
ID : 1
Format : HEVC
Format/Info : High Efficiency Video Coding
Format profile : Main [email protected]@Main
Codec ID : V_MPEGH/ISO/HEVC
Duration : 2 h 15 min
Bit rate : 6 997 kb/s
Width : 3 840 pixels
Height : 2 072 pixels
Display aspect ratio : 1.85:1
Frame rate mode : Constant
Frame rate : 23.976 (24000/1001) FPS
Color space : YUV
Chroma subsampling : 4:2:0
Bit depth : 10 bits
Bits/(Pixel*Frame) : 0.037
Stream size : 6.61 GiB (92%)
Writing library : x265 3.0_Au+24-4217e691387c:[Windows][GCC 9.1.1][64 bit] 10bit
Encoding settings : rc=abr / bitrate=7000 / qcomp=0.60 / qpstep=4 / stats-write=0 / stats-read=2 / cplxblur=20.0 / qblur=0.5 / qpmax=69 / qpmin=0 / no-lossless / no-cu-lossless / no-hevc-aq / no-aq-motion / aq-mode=3 / aq-strength=0.80 / cbqpoffs=0 / crqpoffs=0 / ipratio=1.40 / pbratio=1.30 / psy-rd=2.20 / psy-rdoq=1.15 / deblock=0:0 / ref=4 / limit-refs=3 / limit-modes / bframes=8 / b-adapt=2 / bframe-bias=20 / b-pyramid / no-b-intra / weightp / no-weightb / keyint=250 / min-keyint=23 / rc-lookahead=80 / gop-lookahead=0 / scenecut=40 / scenecut-bias=0.05 / ctu=64 / min-cu-size=8 / me=3 / subme=3 / merange=57 / rd=4 / no-rd-refine / ssim-rd / dynamic-rd=0.00 / rdoq-level=2 / rdpenalty=0 / cutree / sao / limit-sao / no-sao-non-deblock / no-rect / no-amp / open-gop / max-tu-size=32 / tu-inter-depth=1 / tu-intra-depth=1 / limit-tu=0 / qg-size=32 / wpp / no-pmode / no-pme / no-psnr / ssim / no-tskip / constrained-intra / strong-intra-smoothing / max-merge=3 / nr-intra=0 / nr-inter=0 / input-csp=1 / input-res=3840x2072 / interlace=0 / total-frames=194435 / level-idc=0 / high-tier=1cpuid=1111039 / frame-threads=3 / numa-pools=12 / log-level=2 / uhd-bd=0 / lookahead-slices=4 / radl=0 / no-splice / no-intra-refresh / signhide / temporal-mvp / no-analyze-src-pics / early-skip / rskip / no-fast-intra / no-tskip-fast / splitrd-skip / zone-count=0 / no-strict-cbr / no-rc-grain / no-const-vbv / no-allow-non-conformance / no-repeat-headers / annexb / no-aud / no-hrd / info / hash=0 / no-temporal-layers / sar=0 / overscan=0 / videoformat=5 / range=0 / colorprim=2 / transfer=2 / colormatrix=2 / chromaloc=0 / display-window=0 / max-cll=0,0 / min-luma=0 / max-luma=1023 / log2-max-poc-lsb=8 / vui-timing-info / vui-hrd-info / slices=1 / no-opt-qp-pps / no-opt-ref-list-length-pps / multi-pass-opt-rps / no-opt-cu-delta-qp / no-hdr / no-hdr-opt / no-dhdr10-opt / no-idr-recovery-sei / analysis-reuse-level=10 / scale-factor=0 / refine-intra=0 / refine-inter=0 / refine-mv=0 / refine-ctu-distortion=0 / ctu-info=0 / no-lowpass-dct / refine-analysis-type=0 / copy-pic=1 / max-ausize-factor=1.0 / no-dynamic-refine / no-single-sei / no-svt / qp-adaptation-range=1.00
Default : Yes
Forced : No

Audio
ID : 2
Format : AAC
Format/Info : Advanced Audio Codec
Format profile : LC
Codec ID : A_AAC
Duration : 2 h 15 min
Bit rate : 576 kb/s
Channel(s) : 8 channels
Channel positions : Front: L C R, Side: L R, Back: L R, LFE
Sampling rate : 48.0 kHz
Frame rate : 46.875 FPS (1024 spf)
Compression mode : Lossy
Delay relative to video : 9 ms
Stream size : 557 MiB (8%)
Language : English
Default : Yes
Forced : No

Subtitle #1
ID : 3
Format : PGS
Muxing mode : zlib
Codec ID : S_HDMV/PGS
Codec ID/Info : Picture based subtitle format used on BDs/HD-DVDs
Duration : 2 h 3 min
Bit rate : 24.7 kb/s
Count of elements : 2322
Stream size : 21.9 MiB (0%)
Language : English
Default : No
Forced : No

Subtitle #2
ID : 4
Format : UTF-8
Codec ID : S_TEXT/UTF8
Codec ID/Info : UTF-8 Plain Text
Duration : 2 h 3 min
Bit rate : 34 b/s
Count of elements : 1032
Stream size : 31.2 KiB (0%)
Language : English
Default : No
Forced : No

Subtitle #3
ID : 5
Format : VobSub
Muxing mode : zlib
Codec ID : S_VOBSUB
Codec ID/Info : Picture based subtitle format used on DVDs
Duration : 2 h 14 min
Bit rate : 4 360 b/s
Count of elements : 894
Stream size : 4.20 MiB (0%)
Language : French
Default : No
Forced : No

Subtitle #4
ID : 6
Format : VobSub
Muxing mode : zlib
Codec ID : S_VOBSUB
Codec ID/Info : Picture based subtitle format used on DVDs
Duration : 2 h 14 min
Bit rate : 5 709 b/s
Count of elements : 1029
Stream size : 5.49 MiB (0%)
Language : Dutch
Default : No
Forced : No

Subtitle #5
ID : 7
Format : VobSub
Muxing mode : zlib
Codec ID : S_VOBSUB
Codec ID/Info : Picture based subtitle format used on DVDs
Duration : 2 h 14 min
Bit rate : 4 879 b/s
Count of elements : 923
Stream size : 4.69 MiB (0%)
Language : Danish
Default : No
Forced : No

Subtitle #6
ID : 8
Format : VobSub
Muxing mode : zlib
Codec ID : S_VOBSUB
Codec ID/Info : Picture based subtitle format used on DVDs
Duration : 2 h 14 min
Bit rate : 4 806 b/s
Count of elements : 946
Stream size : 4.62 MiB (0%)
Language : Finnish
Default : No
Forced : No

Subtitle #7
ID : 9
Format : VobSub
Muxing mode : zlib
Codec ID : S_VOBSUB
Codec ID/Info : Picture based subtitle format used on DVDs
Duration : 2 h 14 min
Bit rate : 5 262 b/s
Count of elements : 1029
Stream size : 5.06 MiB (0%)
Language : Norwegian Bokmal
Default : No
Forced : No

Subtitle #8
ID : 10
Format : VobSub
Muxing mode : zlib
Codec ID : S_VOBSUB
Codec ID/Info : Picture based subtitle format used on DVDs
Duration : 2 h 14 min
Bit rate : 5 053 b/s
Count of elements : 955
Stream size : 4.86 MiB (0%)
Language : Swedish
Default : No
Forced : No

Subtitle #9
ID : 11
Format : VobSub
Muxing mode : zlib
Codec ID : S_VOBSUB
Codec ID/Info : Picture based subtitle format used on DVDs
Duration : 2 h 14 min
Bit rate : 5 332 b/s
Count of elements : 1027
Stream size : 5.12 MiB (0%)
Language : Russian
Default : No
Forced : No

Subtitle #10
ID : 12
Format : VobSub
Muxing mode : zlib
Codec ID : S_VOBSUB
Codec ID/Info : Picture based subtitle format used on DVDs
Duration : 2 h 14 min
Bit rate : 5 527 b/s
Count of elements : 1032
Stream size : 5.31 MiB (0%)
Language : Hungarian
Default : No
Forced : No

Subtitle #11
ID : 13
Format : VobSub
Muxing mode : zlib
Codec ID : S_VOBSUB
Codec ID/Info : Picture based subtitle format used on DVDs
Duration : 2 h 14 min
Bit rate : 5 185 b/s
Count of elements : 1023
Stream size : 4.98 MiB (0%)
Language : Polish
Default : No
Forced : No

Subtitle #12
ID : 14
Format : VobSub
Muxing mode : zlib
Codec ID : S_VOBSUB
Codec ID/Info : Picture based subtitle format used on DVDs
Duration : 2 h 14 min
Bit rate : 4 423 b/s
Count of elements : 1042
Stream size : 4.25 MiB (0%)
Language : Chinese
Default : No
Forced : No

Subtitle #13
ID : 15
Format : VobSub
Muxing mode : zlib
Codec ID : S_VOBSUB
Codec ID/Info : Picture based subtitle format used on DVDs
Duration : 2 h 14 min
Bit rate : 4 591 b/s
Count of elements : 1032
Stream size : 4.41 MiB (0%)
Language : Chinese
Default : No
Forced : No

Subtitle #14
ID : 16
Format : VobSub
Muxing mode : zlib
Codec ID : S_VOBSUB
Codec ID/Info : Picture based subtitle format used on DVDs
Duration : 2 h 3 min
Bit rate : 3 472 b/s
Count of elements : 951
Stream size : 3.08 MiB (0%)
Language : Korean
Default : No
Forced : No

Subtitle #15
ID : 17
Format : VobSub
Muxing mode : zlib
Codec ID : S_VOBSUB
Codec ID/Info : Picture based subtitle format used on DVDs
Duration : 2 h 14 min
Bit rate : 6 381 b/s
Count of elements : 1031
Stream size : 6.14 MiB (0%)
Language : Greek
Default : No
Forced : No

Subtitle #16
ID : 18
Format : VobSub
Muxing mode : zlib
Codec ID : S_VOBSUB
Codec ID/Info : Picture based subtitle format used on DVDs
Duration : 2 h 14 min
Bit rate : 4 960 b/s
Count of elements : 1030
Stream size : 4.77 MiB (0%)
Language : Romanian
Default : No
Forced : No

Subtitle #17
ID : 19
Format : UTF-8
Codec ID : S_TEXT/UTF8
Codec ID/Info : UTF-8 Plain Text
Duration : 2 h 7 min
Bit rate : 41 b/s
Count of elements : 1002
Stream size : 38.9 KiB (0%)
Language : Arabic
Default : No
Forced : No

Subtitle #18
ID : 20
Format : UTF-8
Codec ID : S_TEXT/UTF8
Codec ID/Info : UTF-8 Plain Text
Duration : 2 h 6 min
Bit rate : 56 b/s
Count of elements : 1015
Stream size : 52.3 KiB (0%)
Language : Persian
Default : No
Forced : No

Subtitle #19
ID : 21
Format : UTF-8
Codec ID : S_TEXT/UTF8
Codec ID/Info : UTF-8 Plain Text
Duration : 2 h 6 min
Bit rate : 45 b/s
Count of elements : 754
Stream size : 42.0 KiB (0%)
Language : Greek
Default : No
Forced : No

Subtitle #20
ID : 22
Format : UTF-8
Codec ID : S_TEXT/UTF8
Codec ID/Info : UTF-8 Plain Text
Duration : 1 h 58 min
Bit rate : 36 b/s
Count of elements : 1015
Stream size : 31.9 KiB (0%)
Language : Italian
Default : No
Forced : No

Subtitle #21
ID : 23
Format : UTF-8
Codec ID : S_TEXT/UTF8
Codec ID/Info : UTF-8 Plain Text
Duration : 2 h 7 min
Bit rate : 53 b/s
Count of elements : 1208
Stream size : 49.5 KiB (0%)
Language : Vietnamese
Default : No
Forced : No

Menu
00:00:00.000 : en:Chapter 01
00:06:28.846 : en:Chapter 02
00:09:55.886 : en:Chapter 03
00:25:33.698 : en:Chapter 04
00:53:20.572 : en:Chapter 05
00:59:36.447 : en:Chapter 06
01:15:04.124 : en:Chapter 07
01:21:22.460 : en:Chapter 08
01:25:18.071 : en:Chapter 09
01:39:30.089 : en:Chapter 10
01:43:48.430 : en:Chapter 11
01:49:07.874 : en:Chapter 12
01:55:18.369 : en:Chapter 13
01:57:05.852 : en:Chapter 14
01:59:39.964 : en:Chapter 15
02:06:31.000 : en:Chapter 16



Source Information

Code:

Release: Waterworld.1995.2160p.BluRay.x265.10bit.SDR.DTS-X.7.1-SWTYBLZ.mkv (51.51 GBs)


Code:


Note From UTR
We have no issue with individuals posting or re-uploading our torrents on a platform we aren't on. However, if this is something you'd like to do, please do so in a 'as-is' format. We ask that you do not create a new torrent, include all descriptions you see above including the UTR logo, tags, notes and screenshots. If you'd like to become a permanent poster on a website we don't post to, feel free to get in contact with a UniTeam member.

If possible please donate: BTC 1QA5fum5AyXvWzdVCkQzUNvw3Ef15fHRaR




Files:

  • Waterworld 1995 (2160p x265 10bit FS83 Joy).mkv (7.2 GB)

Comments

Code:

  • udp://tracker.coppersurfer.tk:6969/announce
  • udp://9.rarbg.com:2710/announce
  • udp://9.rarbg.to:2710/announce
  • udp://tracker.torrent.eu.org:451/announce
  • udp://exodus.desync.com:6969/announce
  • udp://tracker.tiny-vps.com:6969/announce
  • udp://open.demonii.si:1337/announce
  • udp://tracker.opentrackr.org:1337/announce
  • udp://tracker.internetwarriors.net:1337/announce