Chase & Status - RTRN II JUNGLE (2019) Flac

  • Category Music
  • Type Lossless
  • Language English
  • Total size 330.1 MB
  • Uploaded By was95was
  • Downloads 165
  • Last checked 3 days ago
  • Date uploaded 6 days ago
  • Seeders 15
  • Leechers 1

Infohash : ADD31FE0827529FF612B70D35731149810736966



Quality-Lossless
Release-2019
Duration-00:46:17
File Size-346.1 MB
Genre-Drum & Bass
Cover Size-1200px

----------------------------------------------------------------------------------------------
Analyzed: RTRN II JUNGLE / Artist: Chase & Status
----------------------------------------------------------------------------------------------
DR Peak RMS Duration Title [codec]
----------------------------------------------------------------------------------------------
DR5 -0.09 dB -8.19 dB 4:01 01 - Shut Up [flac]
DR4 -0.11 dB -6.69 dB 3:14 02 - Heater [flac]
DR5 -0.10 dB -7.47 dB 4:12 03 - Original Business [flac]
DR6 -0.10 dB -8.73 dB 3:33 04 - Murder Music [flac]
DR4 -0.10 dB -8.84 dB 4:12 05 - Program [flac]
DR5 -0.10 dB -6.62 dB 4:05 06 - Cool N Crisp [flac]
DR5 -0.10 dB -7.47 dB 3:20 07 - Weed & Rum [flac]
DR5 -0.10 dB -7.50 dB 3:58 08 - Burning [flac]
DR5 -0.09 dB -7.66 dB 4:34 09 - Retreat2018 [flac]
DR5 -0.11 dB -6.27 dB 3:00 10 - Delete [flac]
DR4 -0.09 dB -5.84 dB 3:43 11 - Bubble [flac]
DR3 -0.10 dB -7.26 dB 4:16 12 - Disaster [flac]
----------------------------------------------------------------------------------------------
Number of files: 12
Official DR value: DR5

Sampling rate: 44100 Hz
Average bitrate: 996kbs
Bits per sample: 16 bit

Files:

Chase & Status - RTRN II JUNGLE (2019) Flac
  • 01 - Shut Up.flac (28.2 MB)
  • 02 - Heater.flac (22.2 MB)
  • 03 - Original Business.flac (31.2 MB)
  • 04 - Murder Music.flac (25.3 MB)
  • 05 - Program.flac (27.4 MB)
  • 06 - Cool N Crisp.flac (31.6 MB)
  • 07 - Weed & Rum.flac (24.2 MB)
  • 08 - Burning.flac (29.3 MB)
  • 09 - Retreat2018.flac (31.6 MB)
  • 10 - Delete.flac (23.2 MB)
  • 11 - Bubble.flac (27.6 MB)
  • 12 - Disaster.flac (28.3 MB)
  • [TGx]Downloaded from torrentgalaxy.org .txt (0.6 KB)
  • cover.jpg (157.1 KB)
  • dr14.txt (1.4 KB)
  • Torrent Downloaded from Glodls.to.txt (0.2 KB)
  • Torrent downloaded from limetorrents.cc.txt (0.1 KB)
  • Torrent Downloaded from worldwidetorrents.to (0.1 KB)

There are currently no comments. Feel free to leave one :)

Code:

  • udp://tracker.piratepublic.com:1337/announce
  • udp://tracker.pirateparty.gr:6969/announce
  • udp://tracker.coppersurfer.tk:6969/announce
  • udp://tracker.leechers-paradise.org:6969/announce
  • udp://9.rarbg.com:2710/announce
  • http://p4p.arenabg.com:1337/announce
  • http://tracker.internetwarriors.net:1337/announce
  • udp://tracker.opentrackr.org:1337/announce
  • udp://exodus.desync.com:6969/announce
  • udp://tracker.leechers-paradise.org:6969/announce
  • udp://tracker.zer0day.to:1337/announce
  • udp://eddie4.nl:6969/announce
  • udp://open.demonii.si:1337/announce
  • udp://tracker.iamhansen.xyz:2000/announce